Jump to content


Welcome to DBSTalk


Sign In 

Create Account
Welcome to DBSTalk. Our community covers all aspects of video delivery solutions including: Direct Broadcast Satellite (DBS), Cable Television, and Internet Protocol Television (IPTV). We also have forums to discuss popular television programs, home theater equipment, and internet streaming service providers. Members of our community include experts who can help you solve technical problems, industry professionals, company representatives, and novices who are here to learn.

Like most online communities you must register to view or post in our community. Sign-up is a free and simple process that requires minimal information. Be a part of our community by signing in or creating an account. The Digital Bit Stream starts here!
  • Reply to existing topics or start a discussion of your own
  • Subscribe to topics and forums and get email updates
  • Send private personal messages (PM) to other forum members
  • Customize your profile page and make new friends
 
Guest Message by DevFuse

Photo

Genie Mini Client Media Share


  • Please log in to reply
2 replies to this topic

#1 OFFLINE   BlackDogX

BlackDogX

    New Member

  • Registered
  • 3 posts
Joined: Aug 03, 2012

Posted 18 April 2013 - 02:06 PM

Has anyone been able to get video to play on their Genie Mini Client? I can play videos via Media Share on the Genie and a HD-DVR (HR21-100) that are both hooked up to my network, but when I try and play video on the Mini Client all I get is a black screen. 

 

I have transcoded the video to MPEG2 video and audio formats (See MediaInfo below).  Is there a different format, codec or bitrate for the client? 

 

Format : MPEG-PS
File size : 346 MiB
Duration : 23mn 33s
Overall bit rate : 2 052 Kbps

Video
ID : 224 (0xE0)
Format : MPEG Video
Format version : Version 2
Format profile : Main@Main
Format settings, BVOP : Yes
Format settings, Matrix : Default
Format settings, GOP : M=3, N=15
Duration : 23mn 33s
Bit rate mode : Variable
Bit rate : 1 755 Kbps
Nominal bit rate : 3 500 Kbps
Width : 720 pixels
Height : 480 pixels
Display aspect ratio : 16:9
Frame rate : 29.970 fps
Standard : NTSC
Color space : YUV
Chroma subsampling : 4:2:0
Bit depth : 8 bits
Scan type : Progressive
Compression mode : Lossy
Bits/(Pixel*Frame) : 0.169
Stream size : 296 MiB (86%)

 

Audio
ID : 192 (0xC0)
Format : MPEG Audio
Format version : Version 1
Format profile : Layer 2
Duration : 23mn 33s
Bit rate mode : Constant
Bit rate : 256 Kbps
Channel(s) : 2 channels
Sampling rate : 48.0 KHz
Compression mode : Lossy
Delay relative to video : -58ms
Stream size : 43.1 MiB (12%)

 



...Ads Help To Support This SIte...

#2 OFFLINE   harsh

harsh

    Beware the Attack Basset

  • Registered
  • 18,968 posts
  • LocationSalem, OR
Joined: Jun 14, 2003

Posted 18 April 2013 - 03:36 PM

The answers you get here will very likely be similar to the answers you got on the DIRECTV forum.

 

A media server with transcode capability is pretty much required.


Too often we enjoy the comfort of opinion without the discomfort of thought. -- JFK


#3 OFFLINE   kklier

kklier

    Cool Member

  • Registered
  • 17 posts
Joined: Dec 19, 2007

Posted 24 April 2013 - 08:43 AM

Mine works just fine through my PlayOn server






Protected By... spam firewall...And...